#TITLE:Kissy Kissy;
#SUBTITLE:;
#ARTIST:Smile.DK;
#TITLETRANSLIT:Kissy Kissy;
#SUBTITLETRANSLIT:;
#ARTISTTRANSLIT:Smile.DK;
#CREDIT:;
#BANNER:Kissy Kissy-bn.png;
#BACKGROUND:Kissy Kissy-bg.png;
#LYRICSPATH:;
#CDTITLE:pm4cd.png;
#MUSIC:Kissy Kissy.mp3;
#OFFSET:0.120;
#SAMPLESTART:48.298;
#SAMPLELENGTH:20.000;
#SELECTABLE:YES;
#BPMS:0.000=138.000,269.250=69.000,278.250=138.000;
#STOPS:;
#BGCHANGES:;
// cache tags:
#FIRSTBEAT:15.250;
#LASTBEAT:408.250;
#SONGFILENAME:Songs/Music V.I.P ^_^/Kissy Kissy - Smile.DK/Kissy Kissy.sm;
#HASMUSIC:1;
#HASBANNER:1;
#MUSICLENGTH:185.944;
// end cache tags

//---------------dance-single - ----------------
#NOTES:
     dance-single:
     :
     Hard:
     14:
     1.000,1.000,1.000,0.097,1.000,868.000,497.000,18.000,0.000,80.000:
0000
0000
0000
0000
,
0000
0000
0000
0000
,
0000
0000
0000
0000
,
0000
0000
0000
0000
0000
0000
0000
0000
0000
0000
0000
0000
0000
0100
0000
0010
,
0000
0001
0000
0010
0000
0100
0000
1000
0000
0100
0000
0010
0000
0100
0000
0010
,
0000
0001
0000
0100
0000
0010
0000
1000
0000
0100
0000
0001
0000
0100
0000
0010
,
0000
0001
0000
0010
0000
0100
0000
1000
0000
0100
0000
1000
0000
0100
0000
0010
,
0000
0001
0000
0100
0000
2000
0000
0000
0000
0000
0000
0000
3000
0100
0000
0010
,
0000
0001
0000
0010
0000
0100
0000
1000
0000
0100
0000
0010
0000
0001
0000
0010
,
0000
0100
0000
1000
0000
0100
0000
0010
0000
0001
0000
1000
0000
0100
0000
0010
,
0000
0001
0000
0010
0000
0100
0000
1000
0000
0100
0000
0010
0000
1001
0000
0100
,
0000
0010
0000
0100
0000
1000
0000
0000
0000
0000
0000
0000
0000
1100
0000
0001
,
0010
1100
0000
0010
0000
1100
0000
0001
0000
1010
0000
0100
0000
0011
0000
1100
,
0010
0001
0000
0011
0100
1000
0000
1100
0000
0001
0010
0100
0010
1001
0000
0100
,
0010
0101
0000
0010
0000
1100
0000
1000
0000
1001
0000
0010
0000
0101
0000
1000
,
0100
1001
0000
0010
0000
1100
0000
0010
0000
0011
0000
0000
0000
1010
0000
0001
,
0100
1010
0000
0100
0000
0011
0000
1000
0000
1001
0000
0010
0000
1100
0000
0110
,
0001
1000
0000
0110
1000
0001
0000
1010
0000
0001
0010
0100
0010
1100
0000
0010
,
0100
1001
0000
0010
0000
1100
0000
0100
0000
0101
0000
1000
0000
0110
0000
1000
,
0100
0010
0100
1000
0100
0011
0000
0000
0000
1011
0000
0000
0000
1100
0000
0100
,
0000
0101
0000
0010
0000
1100
0000
0101
0000
1010
0000
0100
0000
0011
0000
0100
,
0000
1010
0000
0100
0000
0011
0000
1100
0000
0011
0000
0000
0000
1010
0000
0010
,
0000
0101
0000
0001
0000
1010
0000
0110
0000
0011
0000
0000
0000
1100
0000
0100
,
0000
0101
0000
0010
0000
1001
0000
0101
0000
0011
0000
0000
0000
0111
0000
0010
,
0000
1100
0000
1000
0000
0110
0000
0011
0000
1100
0000
0000
0000
0101
0000
0100
,
0000
0011
0000
1000
0000
1010
0000
0110
0000
0101
0000
0000
0000
1001
0000
0001
,
0000
1010
0000
0010
0000
1100
0000
1000
0000
0101
0000
0010
0000
1001
0000
0010
,
0000
1100
0000
0110
0000
0022
0000
0000
0000
0030
0000
0000
0003
1100
0000
1011
,
0000
1100
0000
1011
0000
0101
0000
1010
0000
0101
0000
1010
0000
1100
0000
0111
,
0000
1100
0000
0111
0000
0011
0000
0110
0000
1100
0000
1001
0000
1010
0000
1110
,
0000
1010
0000
1110
0000
1001
0000
0110
0000
0101
0000
0011
0000
0101
0000
1100
,
0000
0101
0000
1010
0000
0101
0000
0000
0000
0110
0000
0000
0000
1001
0000
1101
,
0000
1001
0000
1101
0000
0110
0000
1001
0000
0110
0000
1001
0000
0011
0000
1110
,
0000
0011
0000
1110
0000
0110
0000
1001
0000
0101
0000
1001
0000
1100
0000
0111
,
0000
1100
0000
0111
0000
1100
0000
0110
0000
0101
0000
1001
0000
1010
0000
0110
,
0000
0101
0000
1100
0000
0021
0000
0000
0000
0000
0000
0000
0030
1101
0000
0010
,
0010
0101
0000
1000
0000
0101
0000
0010
0000
1001
0000
0100
0000
0110
0000
0101
,
0010
0001
0000
1010
0100
1000
0000
0110
0000
0100
0010
0100
1000
0101
0000
0001
,
0100
1010
0000
0001
0000
0110
0000
1000
0000
0101
0000
0010
0000
1010
0000
0001
,
0100
1001
0000
0010
0000
1010
0000
0100
0000
0110
0000
0000
0000
1100
0000
0010
,
0100
0011
0000
1000
0000
0101
0000
0010
0000
1100
0000
0001
0000
0110
0000
1010
,
0001
0010
0000
0101
1000
0100
0000
0110
0000
0010
0100
1000
0100
1001
0000
1000
,
0010
1100
0000
0001
0000
1010
0000
0010
0000
0110
0000
0001
0000
1010
0000
0001
,
0010
0100
0010
0100
1000
0101
0000
0000
0000
0011
0000
0000
0000
1001
0000
0100
,
0000
1100
0000
0001
0000
1001
0000
0110
0000
1100
0000
0001
0000
0110
0000
0001
,
0000
1010
0000
0100
0000
0011
0000
0110
0000
1100
0000
0000
0000
0101
0000
0100
,
0000
1001
0000
0010
0000
1100
0000
0011
0000
0110
0000
0000
0000
0011
0000
0100
,
0000
1001
0000
0100
0000
0011
0000
0101
0000
1100
0000
0000
0000
1110
0000
0010
,
0000
0101
0000
0010
0000
1010
0000
0101
0000
0110
0000
0000
0000
1100
0000
0010
,
0000
1001
0000
0100
0000
0011
0000
0110
0000
1001
0000
0000
0000
0110
0000
0001
,
0000
1001
0000
0100
0000
0011
0000
0100
0000
0110
0000
0001
0000
1100
0000
0001
,
0000
0110
0000
1001
0000
2200
0000
0000
0000
0300
0000
0000
3000
0101
0000
1110
,
0000
0101
0000
1110
0000
0011
0000
0110
0000
1100
0000
0110
0000
0011
0000
1011
,
0000
1001
0000
1011
0000
1001
0000
1010
0000
1100
0000
1001
0000
0101
0000
0111
,
0000
0101
0000
0111
0000
1010
0000
0110
0000
0101
0000
0110
0000
1010
0000
0110
,
0000
0101
0000
1100
0000
0011
0000
0000
0000
0110
0000
0000
0000
0110
0000
1110
,
0000
0110
0000
1110
0000
0110
0000
0011
0000
1100
0000
0101
0000
1010
0000
1101
,
0000
1010
0000
1101
0000
0011
0000
1010
0000
0101
0000
0011
0000
0110
0000
1110
,
0000
1001
0000
1110
0000
1001
0000
0011
0000
1100
0000
0110
0000
0101
0000
1001
,
0000
0000
1010
0000
0000
0000
0011
0000
0000
0000
0010
0001
0010
0100
1000
0100
0010
0001
0010
0100
1000
0100
0010
0100
0010
0001
1110
0000
0000
0000
0101
0000
,
0000
0110
0000
1100
0000
1001
0000
0101
0000
0011
0000
0110
0000
1100
0000
0000
,
0011
1100
0000
1001
0000
0101
0000
0011
0000
0110
0000
1100
0000
1001
0000
1010
,
0000
1100
0000
0110
0000
0011
0000
1010
0000
1001
0000
0110
0000
1001
0000
1010
,
0000
0101
0000
1010
0000
0011
0000
0110
0000
0011
0000
1100
0000
1001
0000
0101
,
0000
0110
0000
1001
0000
1010
0000
0110
0000
0101
0000
1100
0000
0110
0000
0011
,
0000
1001
0000
1010
0000
1100
0000
0110
0000
1100
0000
0011
0000
1001
0000
1010
,
0000
0101
0000
0110
0000
1001
0000
1010
0000
1001
0000
0011
0000
0110
0000
1001
,
0000
0101
0000
0011
0000
1201
0000
0010
1000
0020
0000
1000
0001
2300
0000
0100
,
0001
0230
0000
0001
0010
3002
0000
0010
1000
0320
0000
1000
0100
2003
0000
0001
,
0100
0032
0000
0010
0100
3010
0000
0000
0000
1113
0000
0001
0001
0110
0000
0100
,
0000
0011
0000
1000
0000
0101
0000
0010
0000
1100
0000
1001
0010
1000
0000
1001
,
0100
0001
0000
1010
0000
0010
0100
0010
0001
0110
0000
1000
0100
1010
0000
0010
,
0000
0101
0000
1000
0000
0011
0000
0100
0000
0110
0000
0100
0010
1001
0000
0100
,
0000
1001
0000
0010
0000
1100
0000
0000
0000
1001
0000
1000
0100
0011
0000
0010
,
0000
1100
0000
0001
0000
1001
0000
0010
0000
1100
0000
1100
0010
0001
0000
0011
,
0100
1000
0000
0011
0000
0100
0010
0001
0010
1100
0000
0100
1000
0110
0000
0010
,
0000
0101
0000
1000
0000
1001
0000
0010
0000
1100
0000
0001
0010
0100
1000
0100
,
0010
0000
2002
0000
0000
0000
0000
0000
0000
0000
3103
0000
0000
0000
0010
0010
0010
0010
1100
0000
0000
0000
0111
0000
0000
0000
1100
0000
0000
0000
0111
0000
,
0000
1001
0000
0110
0000
1100
0000
0101
0000
1010
0000
0111
0000
1010
0000
0111
,
0000
0011
0000
1010
0000
0110
0000
0101
0000
1001
0000
1110
0000
0110
0000
1110
,
0000
0011
0000
0110
0000
0011
0000
1010
0000
0110
0000
0101
0000
1001
0000
0110
,
0000
1001
0000
0000
0000
0011
0000
0000
0000
0101
0000
1011
0000
0101
0000
1011
,
0000
1100
0000
0110
0000
0101
0000
0110
0000
1100
0000
1011
0000
1001
0000
1011
,
0000
1001
0000
0110
0000
1100
0000
1001
0000
0011
0000
0111
0000
0011
0000
0111
,
0000
0011
0000
1010
0000
0011
0000
1001
0000
0101
0000
1010
0000
0011
0000
0110
,
0000
0101
0000
0000
0000
1100
0000
0000
0000
1101
0000
1011
0000
1101
0000
1011
,
0000
0110
0000
1001
0000
1010
0000
1100
0000
0110
0000
1010
0000
0110
0000
0011
,
0000
0110
0000
0101
0000
1001
0000
0101
0000
0111
0000
1110
0000
0111
0000
1110
,
0000
0011
0000
1001
0000
1100
0000
0110
0000
1001
0000
0101
0000
1010
0000
0110
,
0000
0011
0000
0000
0000
1001
0000
0000
0000
1101
0000
0111
0000
1101
0000
0111
,
0000
1001
0000
1010
0000
0110
0000
0101
0000
0011
0000
0110
0000
1100
0000
0110
,
0000
1100
0000
1001
0000
0101
0000
0011
0000
1010
0000
1100
0000
1010
0000
0101
,
0000
0011
0000
0110
0000
1100
0000
0110
0000
1011
0000
0110
0000
1100
0000
0110
,
0000
0011
0000
0000
0000
1010
0000
0000
0000
0101
0010
1000
0100
0011
0100
1000
,
0001
0110
1000
0100
0010
1001
0100
0010
0001
0101
0010
0001
0010
0110
1000
0100
,
0010
0011
0100
0010
1000
0101
0010
1000
0010
1001
0010
0100
0010
1100
0001
0010
,
0100
1001
0010
0100
1000
0101
1000
0100
0010
0011
1000
0010
0100
1100
0001
0100
,
0010
1010
0001
0100
0001
0110
1000
0001
0100
1001
0010
0001
0100
0011
0100
1000
,
0010
0101
1000
0100
0010
1001
0100
0010
1000
0101
0010
1000
0010
0011
0100
0010
,
0001
1001
0010
0100
1000
1010
0100
0010
0001
0110
0001
0010
0001
1100
0010
0100
,
1000
0000
0000
0011
0000
0000
0100
0000
0000
0010
0000
0000
0100
0000
0000
1001
0000
0000
0010
0000
0000
0001
0000
0000
0010
0000
0000
1110
0000
0001
0000
0010
0000
0100
0000
1000
0000
0100
0000
0010
0000
0001
0000
0010
0000
0100
0000
1000
,
0000
0100
0000
1022
0000
0000
0000
0000
0000
0000
0000
0000
0000
0000
0000
0000
0000
0000
0000
0000
0000
0000
0000
0000
0000
0000
0000
0000
0000
0000
0000
0000
0000
0000
0000
0000
0000
0000
0000
0000
0000
0000
0000
0000
0000
0000
0000
0000
,
0000
0033
0000
0000
0000
0000
0000
0000
0000
0000
0000
0000
0000
0000
0000
0000
;
